Music

Guns N'Roses: Appetite for Democracy–Live at the Hard Rock Casino, Las Vegas 3D ... Full album in mp3 or Flac

Dont Forget Seed After Download!
Guns N'Roses: Appetite for Democracy–Live at the Hard Rock Casino, Las Vegas 3D ... Full album in mp3 or Flac.torrent


Guns N'Roses: Appetite for Democracy–Live at the Hard Rock Casino, Las Vegas 3D ... Full album in mp3 or Flac

Film w wersji 3D Half Over/Under.
Audio DTS MA w osobnym pliku.
Plik zawiera Sample.


produkcja: USA
premiera: 2014
wtwórnia: Universal Music
gatunek: koncert,rock
czas: 02:43:36
opis:
In November 2012, with a team of 3D cameras rolling, the legendary, multi-platinum selling rock band Guns N' Roses took the desert by storm, performing a blistering set at The Joint in the Hard Rock Casino in Las Vegas. Clocking in at just under three hours, the band's explosive
set includes all of their biggest hits and classic GNR staples.
Produced by Rock Fuel Media's Barry Summers, 'Appetite For Democracy 3D' is the first official Guns N' Roses live concert film since 1992's
'Use Your Illusion' concert video.
Have complete control over Axl's punctuality in your lounge room as opposed to seeing them live in concert!
Guns N' Roses is currently made up of Axl Rose, DJ Ashba (guitar), Dizzy Reed (keyboards), Tommy Stinson (bass), Richard Fortus (guitar),
Ron 'Bumblefoot' Thal (guitar), Chris Pitman (keyboards) and Frank Ferrer (drums).
Materiał na ”Appetite For Democracy 3D” został zarejestrowany 21 listopada 2012 roku w prestiżowanym Hard Rock Casino w Las Vegas w trakcie
wielkiego koncertu Guns N' Roses przygotowanego z okazji 25. rocznicy wydania albumu "Appetite for Destruction". To pierwsze od 22 lat
koncertowe wydawnictwo zespołu. Film "Appetite For Democracy 3D", który był już pokazywany w amerykańskich kinach, jest dostępny w formacie
3D i 2D na Blu-ray wraz z interaktywną galerią 3D oraz w formacie 2D na DVD. Obydwie wersje zostały zmiksowane w formacie 5.1 Surround Sound.
Guns N’ Roses oprócz materiałów ze swoich płyt, ze szczególnym uwzględnieniem debiutanckiej ”Appetite For Destruction” i ostatniej studyjnej
”Chinese Democracy”, zagrali covery kawałków Boba Dylana, Paula McCartneya, Led Zeppelin i Pink Floyd.





tracklist:
01. Chinese Democracy
02. Welcome To The Jungle
03. It's So Easy
04. Mr. Brownstone
05. Estranged
06. Rocket Queen
07. Live And Let Die
08. This I Love
09. Better
10. Motivation
11. Catcher In The Rye
12. Street Of Dreams
13. You Could Be Mine
14. Sweet Child O' Mine
15. Another Brick In The Wall part 2
16. November Rain
17. Objectify
18. Don't Cry
19. Civil War
20. The Seeker
21. Knockin' On Heaven's Door
22. Nightrain
23. Used To Love Her
24. Patience
25. Paradise City
dane techniczne:
audio:
Guns N' Roses Appetite for Democracy – Live at the Hard Rock Casino, Las Vegas 3D (2014)-alE13.mka
Format: Matroska
Czas: 02:43:36.021
Rozmiar: 6.00 GiB
Audio (0):
Kodek: (DTS-HD) DTS-HD
Format: DTS
Kanały: 6 channels
BitRate: 5 245 kb/s / 1 509 kb/s
Tytuł: Guns N' Roses Appetite for Democracy: Live at the Hard Rock Casino, Las Vegas 3D (2014)-alE13_DTS
Język: English
video:
Guns N' Roses Appetite for Democracy – Live at the Hard Rock Casino, Las Vegas 3D (2014)-alE13Guns N' Roses-Democracy 3D (2014)-alE13.mkv
Format : Matroska
Format version : Version 4 / Version 2
File size : 10.5 GiB
Duration : 2 h 43 min
Overall bit rate : 9 172 kb/s
Movie name : Guns N' Roses Appetite for Democracy: Live at the Hard Rock Casino, Las Vegas 3D (2014)-alE13
Encoded date : UTC 2017-10-26 05:36:21
Writing application : mkvmerge v8.1.0 ('Psychedelic Postcard') 64bit
Writing library : libebml v1.3.1 + libmatroska v1.4.2
Cover : Yes
Attachments : Cover.jpg
Video
ID : 1
Format : AVC
Format/Info : Advanced Video Codec
Format profile :
Format settings, CABAC : Yes
Format settings, RefFrames : 2 frames
Codec ID : V_MPEG4/ISO/AVC
Duration : 2 h 43 min
Bit rate : 8 528 kb/s
Width : 1 920 pixels
Height : 1 080 pixels
Display aspect ratio : 16:9
Frame rate mode : Constant
Frame rate : 23.976 (24000/1001) FPS
Color space : YUV
Chroma subsampling : 4:2:0
Bit depth : 8 bits
Scan type : Progressive
Bits/(Pixel*Frame) : 0.172
Stream size : 9.75 GiB (93%)
Title : Guns N' Roses Appetite for Democracy: Live at the Hard Rock Casino, Las Vegas 3D (2014)-alE13
Writing library : x264 core 142
Default : Yes
Forced : No
Color range : Limited
Color primaries : BT.709
Transfer characteristics : BT.709
Matrix coefficients : BT.709
Audio
ID : 2
Format : AC-3
Format/Info : Audio Coding 3
Format settings, Endianness : Big
Codec ID : A_AC3
Duration : 2 h 43 min
Bit rate mode : Constant
Bit rate : 640 kb/s
Channel(s) : 6 channels
Channel positions : Front: L C R, Side: L R, LFE
Sampling rate : 48.0 kHz
Frame rate : 31.250 FPS (1536 SPF)
Bit depth : 16 bits
Compression mode : Lossy
Stream size : 749 MiB (7%)
Title : Guns N' Roses Appetite for Democracy: Live at the Hard Rock Casino, Las Vegas 3D (2014)-alE13
Language : English
Service kind : Complete Main
Default : No
Forced : No
Text #1
ID : 3
Format : UTF-8
Codec ID : S_TEXT/UTF8
Codec ID/Info : UTF-8 Plain Text
Duration : 2 h 40 min
Bit rate : 1 b/s
Count of elements : 32
Stream size : 2.29 KiB (0%)
Title : Guns N' Roses Appetite for Democracy: Live at the Hard Rock Casino, Las Vegas 3D (2014)-alE13
Language : Polish
Default : Yes
Forced : No
Text #2
ID : 4
Format : UTF-8
Codec ID : S_TEXT/UTF8
Codec ID/Info : UTF-8 Plain Text
Duration : 2 h 40 min
Bit rate : 1 b/s
Count of elements : 32
Stream size : 2.28 KiB (0%)
Title : Guns N' Roses Appetite for Democracy: Live at the Hard Rock Casino, Las Vegas 3D (2014)-alE13
Language : English
Default : No
Forced : No
Menu
00:00:00.000 : en:1. Intro + Chinese Democracy
00:04:55.962 : en:2. Welcome To The Jungle
00:10:14.447 : en:3. It's So Easy
00:13:30.143 : en:4. Mr. Brownstone
00:18:02.623 : en:5. Estranged
00:27:06.542 : en:6. Rocket Queen
00:34:28.984 : en:7. Instrumental
00:39:29.158 : en:8. Live And Let Die (Paul McCartney & Wings cover)
00:42:35.887 : en:9. This I Love
00:47:54.830 : en:10. Better
00:53:07.059 : en:11. Motivation (Tommy Stinson song)
00:57:06.423 : en:12. No Quarter (Led Zeppelin cover - Instrumental)
01:01:02.659 : en:13.Catcher In The Rye
01:06:57.263 : en:14. Street Of Dreams
01:11:43.925 : en:15. You Could Be Mine
01:18:05.139 : en:16. Instrumental
01:21:54.408 : en:17. Sweet Child O' Mine
01:27:29.077 : en:18. Another Brick In The Wall part 2 (Pink Floyd cover)
01:29:35.370 : en:19. November Rain
01:38:36.911 : en:20. Objectify (Bumblefoot song)
01:42:12.126 : en:21. Don't Cry
01:48:01.684 : en:22. Civil War
01:55:15.951 : en:23. The Seeker (The Who cover)
01:59:38.171 : en:24. Knockin' On Heaven's Door (Bob Dylan cover)
02:12:07.920 : en:25. Instrumental
02:14:06.997 : en:26. Nightrain
02:19:48.672 : en:27. Used To Love Her
02:22:59.196 : en:28. Patience
02:32:24.135 : en:29. Instrumental
02:34:21.002 : en:30. Paradise City
02:41:15.332 : en:31. Credits

Files:

Guns N' Roses Appetite for Democracy – Live at the Hard Rock Casino, Las Vegas 3D (2014)-alE13 info
4.png (8.5 MB)
Cover.jpg (1.2 MB)
1.jpg (537.4 KB)
2.jpg (512.8 KB)
Nostalgie11.jpg (185.8 KB)
Torrent Downloaded From devil-torrents.txt (0.1 KB)
Torrent downloaded from demonoid.pw.txt (0.0 KB)
Torrent Downloaded From ex-torrents-org.txt (0.0 KB)
Torrent Downloaded From immortaltorrent.txt (0.0 KB)
Torrent Downloaded From super-torrent.txt (0.0 KB)
Torrent Downloaded From 1337x.to.txt (0.0 KB)
Torrent Downloaded From bitnova.info.txt (0.0 KB)
Guns N' Roses-Democracy 3D (2014)-alE13.mkv (10.5 GB)
Guns N' Roses Appetite for Democracy – Live at the Hard Rock Casino, Las Vegas 3D (2014)-alE13.mka (6.0 GB)
sample.mkv (40.3 MB)
poster.jpg (142.2 KB)
txt.jpg (89.3 KB) You file ready to download from usenet:
Add comment

Add comment